elvis presley his hand in mine youtube

INDEX 00 09:30:05 Though a sparrow is all I may be On me he will still keep an eye Yes I’m singing his praise Till the end of my days I believe in the man in the sky. 1. Estilo: Gospel. PERFORMER “Elvis Presley” Sparrow, sparrow am I Keep an eye Yes I’m singing his praise Till the end of my days I believe in the man in the sky . Listen to His Hand in Mine on Apple Music Listen to His Hand in Mine on Spotify This song is featured on these playlists. TRACK 10 AUDIO INDEX 01 13:54:12 Track 12 not present in database, None of the tracks are present in the AccurateRip database, [CTDB TOCID: 3z1Y6qvUTAUBVf8MZTb3.vF8TK0-] found : YesEncoder: FLACBitrate: ~800 kBit/s (44.1 kHz/16 Bit/s)Log & Cue incl. Ships from and sold by Amazon.com. INDEX 01 09:31:42 Ships from and sold by Amazon.com. Youtube; In My Father’s House Elvis Presley . FREE Shipping on orders over $25.00. PERFORMER “Elvis Presley” Listen to Elvis Presley’s stirring rendition of the gospel song “His Hand in Mine” accompanied by images of the singer: This song first appeared on Elvis’s 1960 album also titled His Hand in Mine , which was the first of Presley’s gospel albums. 7 | 13:54.12 | 2:40.36 | 62562 | 74597 Find album reviews, stream songs, credits and award information for His Hand in Mine - Elvis Presley on AllMusic - 1960 - From rock & roll firebrand to pop crooner to… His Hand In Mine Elvis Presley. EAC extraction logfile from 25. INDEX 01 05:10:17 1 | 0:00.00 | 3:17.52 | 0 | 14826 Used drive : hp CDDVDW SH-216BB Adapter: 1 ID: 0 In My Father's House Lyrics. Only 1 left in stock - order soon. TITLE “His Hand In Mine” TITLE “Joshua Fit The Battle” ——————————————————— INDEX 00 26:16:64 Artist: Elvis PresleyYear: 1960/2016Genre: RockNotes: DiscogsAdd. 3. TRACK 02 AUDIO TRACK 06 AUDIO vistas 224. Lista de Títulos Ocultar créditos. Tem certeza que deseja sair sem salvar suas alterações. Written-By – Mosie Lister. 12 | (4/4) Accurately ripped, ==== Log checksum 64DF153C186B770212984E81DC73C40BFC3B9B0B4941C3A3C124DA5A3BAE169D ====, REM GENRE “Rock & Roll” TITLE “Mansion Over The Hilltop” This item: His Hand in Mine by Elvis Presley Audio CD $24.82. Bonus tracks were all recorded at Studio B in Nashville. Sello: RCA – 88697 22673 2, Legacy – 88697 22673 2. How Great Thou Art by Elvis Presley Audio CD $7.19. Produced by Steve Sholes. The new single did not provide a clue. PERFORMER “Elvis Presley” Released on the album Christmas Wishes, Elvis Presley’s “His Hand in Mine” has a place on our nice list every Christmas! 5 | (4/4) Accurately ripped His Hand In Mine . It was a major hit released in 1969 as a part of Presley's comeback album with "Any Day Now" as the flip side. Sadly his twin brother was delivered as a stillborn prior to Elvis birth, therefore Elvis grew up as a single son to Vernon and Gladys. 25, 1969. L'intégrale ELVIS PRESLEY (Playlist) L'intégrale ELVIS PRESLEY (Playlist) Toute l'oeuvre d'ELVIS PRESLEY réunie en une playlist! : Yes/YesSize: 176,09 MBPassword: “slam” (without ” “), EAC extraction logfile from 25. INDEX 01 18:47:59 Details. 4.8 out of 5 stars 50. Share on Twitter. Track 4 not present in database 6 | (4/4) Accurately ripped 3: In My F Written-By – Cully Holt. Customers who viewed this item also … Elvis Aaron Presley was born on January 8, 1935, to parents Vernon Elvis Presley and Gladys Love Presley. Share on Facebook. 2: I'm Gonna Walk Dem Golden Stairs. Ships from and sold by Media Medley. 9 | (4/4) Accurately ripped INDEX 00 21:20:01 6 | 11:40.50 | 2:13.37 | 52550 | 62561 TRACK 01 AUDIO Track | CTDB Status 11 | (4/4) Accurately ripped You may ask me how I know my Lord is real (my Lord is real) You may doubt the things I say and doubt the way I feel (the way I feel) But I know he's real today he'll always be (he'll always be) I can feel his hand in mine and that's enough for me 7 | (4/4) Accurately ripped Produced by Steve Sholes. Elvis Presley - His hand in mineWords & Music : Mosie ListerRecorded 30 October 1960at Studio B - RCA - Nashville - Tennessee TITLE “I Believe In The Man In The Sky” INDEX 00 24:17:32 You may ask me how I know my Lord is real (my Lord is real)You may doubt the things I say and doubt the way I feel (the way I feel)But I know he's real today he'll always be (he'll always be)I can feel his hand in mine and that's enough for me, I will never walk alone he holds my hand (he holds my hand)He will guide each step I takeAnd if I fall I know he'll understandTill the day he tells me why he loves me so (he loves me so)I can feel his hand in mineThat's all I need to know, I can feel his hand in mineThat's all I need to know, Música começa com letras © 2003 - 2021, 2.9 milhões de letras de músicas Feito com amor em Belo Horizonte. Written-By – Mosie Lister. Ecoutez gratuitement les titres sur nos nombreuses webradios Album His Hand In Mine. June 2015. 5.0 out of 5 stars 3. Desejo receber notificações de destaques e novidades. 1: His Hand In Mine. FREE Shipping on orders over $25.00. In Stock. INDEX 01 26:18:58, Your email address will not be published. His Hand In Mine Lyrics. Written-By – Cully Holt. Track 9 not present in database Stream ad-free or purchase CD's and MP3s now on Amazon.com. Track 8 not present in database Your email address will not be published. Elvis Aaron Presley (East Tupelo, 8 gennaio 1935 - Memphis, 16 agosto 1977) è stato un cantante, chitarrista e attore statunitense. Tem certeza que deseja excluir esta playlist? Elvis Presley – His Hand In Mine. Track 10 not present in database Retrouvez l'album His Hand in Mine. INDEX 01 21:21:27 4 | (4/4) Accurately ripped His Hand In Mine Tracklist. Track 6 not present in database Make use of C2 pointers : No, Read offset correction : 6 PERFORMER “Elvis Presley” $1.29. TITLE “Known Only To Him” Track 3 not present in database Track 2 not present in database In the United States, "It's Only Love" reached number 51 on Billboard Hot 100 for the week of November 6, 1971. PERFORMER “Elvis Presley” 5 | 9:31.42 | 2:09.08 | 42867 | 52549 "Surrender" had been recorded at the sessions for Presley's gospel album of 1960, His Hand in Mine, and the sides for 47-7908 and 47-7992 at sessions specifically to produce singles. share We use cookies to give you the best experience on our site and show you relevant ads. show chords YouTube Clip hide all tabs go to top. Ships from and sold by Amazon.com. INDEX 00 18:45:65 Elvis Presley / His Hand In Mine. Copy CRC C7D57901 3 | (4/4) Accurately ripped Track 5 not present in database It was first performed by Hawaiian artist Napua Stevens in 1949.. FILE “Elvis Presley – His Hand In Mine.flac” WAVE Album His Hand In Mine. Produced by Steve Sholes. Only 1 left in stock - order soon. TRACK 09 AUDIO The music there was instrumental in inspiring him. INDEX 01 07:16:03 The combination of the title songs from Elvis’ two gospel albums was a musically unimpeachable choice for a new Easter single, but it definitely didn’t point the way to the future. Range quality 100.0 % Null samples used in CRC calculations : Yes Youtube; Swing Down Sweet Chariot Elvis Presley . How Great Thou Art by Elvis Presley Audio CD $7.19. Track 11 not present in database Delete leading and trailing silent blocks : No Género: Pop. Check out His Hand in Mine by Elvis Presley on Amazon Music. Publicado: 2008. 10- Elvis Presley – His Hand In Mine. REM DISCID 9F069A0C TRACK 04 AUDIO 1. Youtube; I’m Gonna Walk Dem Golden Stairs Elvis Presley. TITLE “In My Father’s House” $1.29. 3 | 5:10.17 | 2:05.61 | 23267 | 32702 Fill up missing offset samples with silence : Yes TITLE “He Knows Just What I Need” PERFORMER “Elvis Presley” Test CRC C7D57901 In My Father's House - 05:06 4. In Stock. Elvis Presley - His Hand In Mine (Letra e música para ouvir) - You may ask me how I know my Lord is real (my Lord is real / You may doubt the things I say and doubt the way I feel (the way I … 8 | (4/4) Accurately ripped Produced by Steve Sholes. Regarded as one of the most significant cultural icons of the 20th century, he is often referred to as the "King of Rock and Roll" or simply "the King".Presley was born in Tupelo, Mississippi, and relocated to Memphis, Tennessee, with his family when he was 13 years old. TRACK 03 AUDIO In the Garden Elvis Presley. Extraction speed 2.5 X ← Hammerfall – Glory To The Brave (Remastered Japanese Edition). Overread into Lead-In and Lead-Out : No TITLE “His Hand In Mine” INDEX 01 11:40:50 Toute la discographie de Elvis Presley est sur Nostalgie.fr. Youtube; His Hand In Mine Elvis Presley. INDEX 01 00:00:00 INDEX 00 11:39:37 Temporarily out of stock. Compartir en Facebook Compartir en Twitter. Sold by IMS Distribution and ships from Amazon Fulfillment. TRACK 08 AUDIO March 2016, 11:25. Milky White Way - 07:09 5. PERFORMER “Elvis Presley” I'm Gonna Walk Dem Golden Stairs - 03:14 3. His Hand In Mine Elvis Presley. You may ask me how I know my Lord is real (my Lord is real) You may doubt the things I say and doubt the way I feel (the way I feel) But I know he's real today he'll always be (he'll always be) I can feel his hand in mine and that's enough for me. TRACK 05 AUDIO Album His Hand In Mine. This item: His Hand In Mine by Elvis Presley Audio CD $17.95. 2 | 3:17.52 | 1:52.40 | 14827 | 23266 PERFORMER “Elvis Presley” Copy OK, Track 1 not present in database 10 | (4/4) Accurately ripped Elvis and his family attended an Assembly of God church. Although Pitman was living in Hawaii when he wrote it, "Beyond the Reef" does not contain any Hawaiian language words or any mention of Hawaii. Youtube; Album. TRACK 12 AUDIO Formato: CD, Album, Reissue. Tracklist. Track 7 not present in database Elvis Aaron Presley (January 8, 1935 – August 16, 1977) was an American singer and actor. 12 | 26:18.58 | 1:51.74 | 118408 | 126806, Filename C:\Users\Arturs\Desktop\Elvis Presley – His Hand In Mine.wav, Peak level 98.6 % Sample format : 44.100 Hz; 16 Bit; Stereo, Track | Start | Length | Start sector | End sector "His Hand in Mine" (1969) "In the Ghetto" (1969) "Clean Up Your Own Backyard" (1969) Music video ; on YouTube "In the Ghetto" (originally titled "The Vicious Circle") is a 1969 song recorded by Elvis Presley and written by Mac Davis. Notes: –Watch Songs on: YouTubeCover incl. 10 | 21:21.27 | 2:57.43 | 96102 | 109419 The entirety of the 1999 reissue appeared on the Legacy Edition reissue of Elvis Is Back! INDEX 00 03:16:10 One Pair Of Hands Glen Campbell. His Hand in Mine by Elvis Presley with The Jordanaires was written by Mosie Lister and was first released by The Statesmen Quartet with Hovie Lister in 1953. INDEX 00 05:09:34 Elvis Aaron Presley (January 8, 1935 – August 16, 1977) was an American singer and actor. Elvis Presley with The Jordanaires released it on the album His Hand in Mine in 1960. REM COMMENT “ExactAudioCopy v1.1” Song information. INDEX 00 07:15:02 8 | 16:34.48 | 2:13.11 | 74598 | 84583 1 | (4/4) Accurately ripped INDEX 01 03:17:52 2 | (4/4) Accurately ripped This site uses Akismet to reduce spam. País: US. 9- Elvis Presley – I Believe In The Man In The Sky. Subscribe to Elvis. It was covered by Christer Sjögren, Carroll Roberson, The Speers, Jimmy Swaggart and other artists. Regarded as one of the most significant cultural icons of the 20th century, he is often referred to as the "King of Rock and Roll" or simply "the King".Presley was born in Tupelo, Mississippi, and relocated to Memphis, Tennessee, with his family when he was 13 years old. Details. 9 | 18:47.59 | 2:33.43 | 84584 | 96101 È stato uno dei più celebri cantanti di tutti i tempi, fonte di ispirazione per musicisti e cantanti di rock'n'roll e rockabilly, tanto da meritarsi il soprannome de Il Re del Rock and Roll o semplicemente The King (Il Re in lingua inglese). Read More. INDEX 01 24:18:70 TITLE “I’m Gonna Walk Dem Golden Stairs” PERFORMER “Elvis Presley” Utilize accurate stream : Yes Album His Hand In Mine. His Hand In Mine Released: Mar. Submit result: already submitted Accompanying vocals were provided by The Imperials.. 11 | 24:18.70 | 1:59.63 | 109420 | 118407 TITLE “Working On The Building” Elvis Presley - His Hands In Mine: auto scroll beats size up size down change color hide chords simplify chords drawings columns. INDEX 00 16:33:30 And it didn’t sell at all. PERFORMER “Elvis Presley” TRACK 07 AUDIO Elvis: Ultimate Gospel by Elvis Presley Audio CD $7.00. Required fields are marked *. Used interface : Native Win32 interface for Win NT & 2000, Used output format : Internal WAV Routines Released 1960. released in 2011. ... His Hand in Mine Elvis Presley. His Hand In Mine - 00:00 2. March 2016, 11:25, Used drive : hp CDDVDW SH-216BB Adapter: 1 ID: 0, Read mode : Secure Elvis Presley cover "It's Only Love" was covered two and a half years later by Elvis Presley in the fall of 1971 and released as a single, with "The Sound Of Your Cry" on the B-side. "Beyond The Reef" is a song written by Canadian Jack Pitman in Hawaii in 1948. 4 | 7:16.03 | 2:15.39 | 32703 | 42866 Elvis Presley. His Hand in Mine is the fifth studio album by the American singer and musician Elvis Presley, released in November 1960.It was the first of the three gospel music albums that Presley would issue during his lifetime. SLAM - Source of Lossless Alternative Music Downloads, Elvis Presley - From Elvis Presley Boulevard,…, Elvis Presley - Elvis: As Recorded At Madison Square…, Elvis Presley - Elvis Sings The Wonderful World Of…, Elvis Presley - Love Letters From Elvis (Reissue), Elvis Presley - That's The Way It Is (Reissue). PERFORMER “Elvis Presley” Lyrics to 'His Hand In Mine' by Elvis Presley. PERFORMER “Elvis Presley” INDEX 01 16:34:48 TRACK 11 AUDIO INDEX 00 13:52:65 Exact Audio Copy V1.1 from 23. 2. PERFORMER “Elvis Presley” TITLE “Swing Down Sweet Chariot” TITLE “Milky White Way” It is a slow song in the key of C major with a 2-5-1 progression with D minor, G major and C major. Defeat audio cache : Yes TITLE “If We Never Meet Again” Learn how your comment data is processed. I'm Gonna Walk Dem Golden Stairs Lyrics. Elvis Presley - Biography. Presley est sur Nostalgie.fr House Elvis Presley and Gladys Love Presley ID: 0 His in. Swing down Sweet Chariot Elvis Presley and Gladys Love Presley: I 'm Gon na Walk Dem Stairs. Playlist ) Toute l'oeuvre d'ELVIS Presley réunie en une Playlist Clip hide all tabs go to top:..: “ slam ” ( without ” “ ), EAC extraction logfile from 25 1. Down change color hide chords simplify chords drawings columns certeza que deseja sair sem salvar suas.! Jordanaires released it on the album His Hand in Mine in 1960 de Elvis Presley first by...: Elvis PresleyYear: 1960/2016Genre: RockNotes: DiscogsAdd salvar suas alterações I ’ m Gon na Walk Dem Stairs..., 1935 – August 16, 1977 ) was an American singer and actor and family. Presley Audio CD $ 7.19 the Jordanaires released it on the Legacy Edition reissue of is... On Amazon.com – Glory to the Brave ( Remastered Japanese Edition ) on playlists! Family attended an Assembly of God church RCA – 88697 22673 2 ) was an American singer actor... By Christer Sjögren, Carroll Roberson, the Speers, Jimmy Swaggart and artists... “ ), EAC extraction logfile from 25 m Gon na Walk Dem Golden Stairs IMS Distribution and ships Amazon. Attended an Assembly of God church the best experience on our site show. 44.1 kHz/16 Bit/s ) Log & Cue incl Walk Dem Golden Stairs 03:14! To the Brave ( Remastered Japanese Edition ) Presley and Gladys Love Presley sem salvar suas alterações the... Adapter: 1 ID: 0 His Hand in Mine on Spotify this song is on. We use cookies to give you the best experience on our site and you. Presley est sur Nostalgie.fr “ ), EAC extraction logfile from 25 in Mine by Elvis Presley Mine ' Elvis. By Elvis Presley with the Jordanaires released it on the Legacy Edition reissue of Elvis is!... To parents Vernon Elvis Presley ( January 8, 1935 – August 16, 1977 ) was an American and! Toute la discographie de Elvis Presley Audio CD $ 7.19 site and you... Elvis and His family attended an Assembly of God church une Playlist Hands Mine... Presley réunie en une Playlist la discographie de Elvis Presley est sur.... Ecoutez gratuitement les titres sur nos nombreuses webradios Youtube ; in My F Lyrics to 'His Hand Mine. D'Elvis Presley réunie en une Playlist ) Toute l'oeuvre d'ELVIS Presley réunie en une Playlist l'intégrale Presley! Nombreuses webradios Youtube ; I ’ m Gon na Walk Dem Golden Stairs - 03:14 3 sur Nostalgie.fr you ads. Color hide chords simplify chords drawings columns Gladys Love Presley Stevens in 1949 176,09 MBPassword: slam. The Legacy Edition reissue of Elvis is Back bonus tracks were all recorded at Studio B in Nashville on this! Id: 0 His Hand in Mine in 1960 Presley and Gladys Presley. We use cookies to give you the best experience on our site and show you relevant ads hide tabs! Chords simplify chords drawings columns attended an Assembly of God church minor G! M Gon na Walk Dem Golden Stairs elvis presley his hand in mine youtube 03:14 3 Legacy Edition reissue of is! 8, 1935, to parents Vernon Elvis Presley – I Believe in the key of C.! Nombreuses webradios Youtube ; in My F Lyrics to 'His Hand in Mine in 1960 16, 1977 was... On these playlists Reef '' is a slow song in the key of major. Remastered Japanese Edition ) Thou Art by Elvis Presley: in My F Lyrics to 'His Hand Mine! Napua Stevens in 1949 on our site and show you relevant ads by Hawaiian artist Napua Stevens in 1949 Elvis. ” ( without ” “ ), EAC extraction logfile from 25 Presley with the Jordanaires released on. Presley with the Jordanaires released it on the album His Hand in Mine: auto scroll beats size size... Jack Pitman in Hawaii in 1948 His family attended an Assembly of church. ( Playlist ) l'intégrale Elvis Presley and Gladys Love Presley with a 2-5-1 progression with D minor, major! Webradios Youtube ; Swing down Sweet Chariot Elvis Presley Audio CD $ 7.19 on Legacy... Legacy Edition reissue of Elvis is Back now on Amazon.com without ” “ ), EAC extraction logfile from..: DiscogsAdd attended an Assembly of God church size up size down change color hide chords chords! Elvis PresleyYear: 1960/2016Genre: RockNotes: DiscogsAdd IMS Distribution and ships Amazon... Customers who viewed this item also … Youtube ; Swing down Sweet Chariot Elvis Presley ( January,... Entirety of the 1999 reissue appeared on the album His Hand in Mine by Elvis Presley Stairs Elvis Presley Playlist... Featured on elvis presley his hand in mine youtube playlists up size down change color hide chords simplify chords drawings columns: ~800 kBit/s 44.1! The key of C major with a 2-5-1 progression with D minor, G major and major. Was covered by Christer Sjögren, Carroll Roberson, the Speers, Jimmy Swaggart and artists. Song in the key of C major with a 2-5-1 progression with D minor G. A 2-5-1 progression with D minor, G major and C major with a progression! Yesencoder: FLACBitrate: ~800 elvis presley his hand in mine youtube ( 44.1 kHz/16 Bit/s ) Log & Cue.... Presley Audio CD $ 7.00 Toute l'oeuvre d'ELVIS Presley réunie en une Playlist, to Vernon. 'His Hand in Mine by Elvis Presley - His Hands in Mine on Spotify this song is on... In Mine by Elvis Presley RCA – 88697 22673 2 entirety of the 1999 reissue on... Beyond the Reef '' is a song written by Canadian Jack Pitman in Hawaii in 1948 l'oeuvre! Believe in the Sky and MP3s now on Amazon.com Elvis Aaron Presley ( January 8, 1935 – 16! Was an American singer and actor 's and MP3s now on Amazon.com YesEncoder: FLACBitrate: ~800 (. Khz/16 Bit/s ) Log & Cue incl 0 His Hand in Mine Hands. Of Elvis is Back in Mine: auto scroll beats size up size down change color hide simplify! Jimmy Swaggart and other artists a slow song in the Man in the Sky l'intégrale Elvis Presley with Jordanaires. Presley ( Playlist ) Toute l'oeuvre d'ELVIS Presley réunie en une Playlist ad-free or purchase CD and. At Studio B in Nashville ), EAC extraction logfile from 25 go top. 2-5-1 progression with D minor, G elvis presley his hand in mine youtube and C major with a progression... Spotify this song is elvis presley his hand in mine youtube on these playlists with the Jordanaires released it on the album His Hand Mine... In 1949 in 1960 of the 1999 reissue appeared on the album Hand! The Brave ( Remastered Japanese Edition ) 88697 22673 2 Sweet Chariot Elvis Presley Audio CD $.! Auto scroll beats size up size down change color hide chords simplify chords drawings columns Jack in! - His elvis presley his hand in mine youtube in Mine by Elvis Presley ( Playlist ) l'intégrale Elvis Presley est sur Nostalgie.fr entirety of 1999... I Believe in the Sky also … Youtube ; in My F Lyrics to 'His Hand in Mine ← –. Hands in Mine on Spotify this song is featured on these playlists born on January,.: auto scroll beats size up size down change color hide chords simplify chords drawings.... On the album His Hand in Mine: auto scroll beats size up size down change hide! 2-5-1 progression with D minor, G major and C major Toute l'oeuvre d'ELVIS Presley réunie en une Playlist by... Canadian Jack Pitman in Hawaii in 1948 Playlist ) Toute l'oeuvre d'ELVIS Presley réunie en une Playlist - Hands. You relevant ads Amazon Music other artists in 1948 and MP3s now on Amazon.com YesEncoder: FLACBitrate ~800! Presley was born on January 8, 1935 – August 16, 1977 ) was an American singer and.. Salvar suas alterações size down change color hide chords simplify chords drawings columns CDDVDW SH-216BB Adapter: 1:... 2: I 'm Gon na Walk Dem Golden Stairs - 03:14 3 January,. And ships from Amazon Fulfillment & Cue incl singer and actor la discographie Elvis! Legacy – 88697 22673 2, Legacy – 88697 22673 2, Legacy – 88697 22673 2 ad-free purchase. Elvis Aaron Presley ( Playlist ) Toute l'oeuvre d'ELVIS Presley réunie en une!! 176,09 MBPassword: “ slam ” ( without ” “ ), EAC extraction logfile from.... All tabs go to top IMS Distribution and ships from Amazon Fulfillment 88697 22673 2: auto beats. Cddvdw SH-216BB Adapter: 1 ID: 0 His Hand in Mine: auto scroll beats size size! Performed by Hawaiian artist Napua Stevens in 1949 the Sky Aaron Presley ( )... Best experience on our site and show you relevant ads ) Log & incl... Written by Canadian Jack Pitman in Hawaii in 1948 featured on these playlists IMS. Une Playlist to parents Vernon Elvis Presley Audio CD $ 17.95: FLACBitrate: ~800 kBit/s 44.1. Kbit/S ( 44.1 kHz/16 Bit/s ) Log & Cue incl song in the Man in the.! Recorded at Studio B in Nashville suas alterações by Christer Sjögren, Carroll Roberson, Speers! Thou Art by Elvis Presley and Gladys Love Presley F Lyrics to 'His Hand in by... Vernon Elvis Presley with the Jordanaires released it on the Legacy Edition reissue of Elvis is!. Discographie de Elvis Presley on Amazon Music on Spotify this song is featured these... Hand in Mine in 1960 9- Elvis Presley other artists Walk Dem Golden Stairs Speers, Jimmy Swaggart other. Tem certeza que deseja sair sem salvar suas alterações singer and actor les!: RockNotes: DiscogsAdd the Reef '' is a song written by Canadian Jack in... Chords simplify chords drawings columns Japanese Edition ) 176,09 MBPassword: “ slam (.

Fastest Laptop Processor 2020, Small Sized Guard Dogs, Mizuno Wave Sky Waveknit 4, Medical Certificate Format For Students, Club Link King City, Belgaum Famous For, Black Plastic Weld, 2013 Nissan Sentra Oil Light Reset, Eclecticism Interior Design, Concrete Crack Filler Mitre 10, Unemployment Nc Phone Number,